The Wild Pear Tree 2018 TURKISH 720p BrRip x265 HEVCBay torrent download

seeders: 386
leechers: 371
updated:
Added ago by g3m696 ***** in Movies
Torrent Downloaded 10 times.
Info Hash: 332A99B13E311322D8F9525BA3DA8432FB96C833


Torrent Files

The Wild Pear Tree 2018 TURKISH 720p BrRip x265 HEVCBay (Size: 588.9 MB)
  The Wild Pear Tree 2018 TURKISH 720p BrRip x265 HEVCBay 588.9 MB

Torrent Description



hevcbay.com

Code:

General
Unique ID : 211371342468228299939700711762705806112 (0x9F04A3C8EA90E0B4D89F5C4FBEB07320)
Complete name : The.Wild.Pear.Tree.2018.TURKISH.720p.BrRip.x265.HEVCBay.com.mkv
Format : Matroska
Format version : Version 4
File size : 589 MiB
Duration : 3 h 8 min
Overall bit rate : 437 kb/s
Movie name : The.Wild.Pear.Tree.2018.TURKISH.720p.BrRip.x265.HEVCBay.com.mkv
Encoded date : UTC 2019-02-10 15:14:00
Writing application : hevcbay
Writing library : hevcbay.com / Lavf58.22.100
Comment : Encoded by hevcbay.com
ENCODED-BY : hevcbay.com

Video
ID : 1
Format : HEVC
Format/Info : High Efficiency Video Coding
Format profile : [email protected]@Main
Codec ID : V_MPEGH/ISO/HEVC
Duration : 3 h 8 min
Bit rate : 381 kb/s
Width : 1 280 pixels
Height : 536 pixels
Display aspect ratio : 2.40:1
Frame rate mode : Constant
Frame rate : 24.000 FPS
Color space : YUV
Chroma subsampling : 4:2:0
Bit depth : 8 bits
Bits/(Pixel*Frame) : 0.023
Stream size : 513 MiB (87%)
Writing library : Lavc58.42.102 libx265
Default : Yes
Forced : No
Color range : Limited

Audio
ID : 2
Format : AAC LC SBR PS
Format/Info : Advanced Audio Codec Low Complexity with Spectral Band Replication and Parametric Stereo
Commercial name : HE-AACv2
Format settings : NBC
Codec ID : A_AAC-29
Duration : 3 h 8 min
Bit rate : 54.3 kb/s
Channel(s) : 2 channels
Channel layout : C
Sampling rate : 48.0 kHz
Frame rate : 23.438 FPS (2048 SPF)
Compression mode : Lossy
Delay relative to video : -148 ms
Stream size : 73.2 MiB (12%)
Writing library : Lavc58.42.102 libfdk_aac
Language : Turkish
Default : Yes
Forced : No

Text
ID : 3
Format : ASS
Codec ID : S_TEXT/ASS
Codec ID/Info : Advanced Sub Station Alpha
Duration : 3 h 0 min
Bit rate : 102 b/s
Count of elements : 2638
Compression mode : Lossless
Stream size : 135 KiB (0%)
Language : English
Default : No
Forced : No









Related Torrents

torrent name size age seed leech
713.6 MB 4 hours 76 202
4.5 GB 4 hours 245 212
425.5 MB 4 hours 538 43
73.4 MB 4 hours 734 139
1.9 GB 4 hours 661 220

Sharing Widget


Download torrent
588.9 MB
seeders:1214
leechers:386
The Wild Pear Tree 2018 TURKISH 720p BrRip x265 HEVCBay



To share this torrent use the code below and insert it into comments, status messages, forum posts or your signature.

Torrent: The Wild Pear Tree 2018 TURKISH 720p BrRip x265 HEVCBay

Comments

Latest Searches