The Nines 2007 720p BrRip x265 HEVCBay torrent download

seeders: 630
leechers: 135
updated:
Added ago by g3m696 ***** in Movies
Torrent Downloaded 10 times.
Info Hash: FC7C7BAF239CC750E06C7DBDDFFAA8F9166CCD06


Torrent Files

The Nines 2007 720p BrRip x265 HEVCBay (Size: 375.5 MB)
  The Nines 2007 720p BrRip x265 HEVCBay 375.5 MB

Torrent Description



hevcbay.com

Code:

General
Unique ID : 16971461798630290947972555691883675106 (0xCC495AB7A6F501947C4A862C92EBDE2)
Complete name : The.Nines.2007.720p.BrRip.x265.HEVCBay.com.mkv
Format : Matroska
Format version : Version 4
File size : 375 MiB
Duration : 1 h 39 min
Overall bit rate : 527 kb/s
Movie name : The.Nines.2007.720p.BrRip.x265.HEVCBay.com.mkv
Encoded date : UTC 2019-02-11 01:01:35
Writing application : hevcbay
Writing library : hevcbay.com / Lavf58.22.100
Comment : Encoded by hevcbay.com
ENCODED-BY : hevcbay.com

Video
ID : 1
Format : HEVC
Format/Info : High Efficiency Video Coding
Format profile : [email protected]@Main
Codec ID : V_MPEGH/ISO/HEVC
Duration : 1 h 39 min
Bit rate : 474 kb/s
Width : 1 280 pixels
Height : 694 pixels
Display aspect ratio : 1.85:1
Original display aspect ratio : 1.85:1
Frame rate mode : Constant
Frame rate : 23.976 (23976/1000) FPS
Color space : YUV
Chroma subsampling : 4:2:0
Bit depth : 8 bits
Bits/(Pixel*Frame) : 0.022
Stream size : 338 MiB (90%)
Writing library : Lavc58.40.100 libx265
Default : Yes
Forced : No
Color range : Limited

Audio
ID : 2
Format : AAC LC SBR PS
Format/Info : Advanced Audio Codec Low Complexity with Spectral Band Replication and Parametric Stereo
Commercial name : HE-AACv2
Format settings : NBC
Codec ID : A_AAC-29
Duration : 1 h 39 min
Bit rate : 51.4 kb/s
Channel(s) : 2 channels
Channel layout : C
Sampling rate : 48.0 kHz
Frame rate : 23.438 FPS (2048 SPF)
Compression mode : Lossy
Delay relative to video : -148 ms
Stream size : 36.6 MiB (10%)
Writing library : Lavc58.40.100 libfdk_aac
Default : Yes
Forced : No









Related Torrents

torrent name size age seed leech
429.71 MB 1 minute 177 136
8.92 GB 1 minute 35 232
1.7 GB 1 minute 549 29
822.07 MB 1 minute 244 410
1.27 GB 1 minute 576 277

Sharing Widget


Download torrent
375.5 MB
seeders:1214
leechers:386
The Nines 2007 720p BrRip x265 HEVCBay



To share this torrent use the code below and insert it into comments, status messages, forum posts or your signature.

Torrent: The Nines 2007 720p BrRip x265 HEVCBay

Comments

Latest Searches